Psx Track Files

Interactive CD Sampler Demo Pack Vol. • Apple Macintosh • Bandai Playdia Quick Interactive System • Bandai / Apple Pippin • Commodore Amiga CD • Commodore Amiga CD32 • Commodore Amiga CDTV • Fujitsu FM Towns series • IBM PC compatible • Mattel HyperScan • Microsoft Xbox • NEC PC-88 series • NEC PC-98 series • NEC PC-FX & PC-FXGA • NEC PC Engine CD. Create a new. bin" BINARY TRACK 01 MODE1/2352 INDEX 01 00:00:00. From my experience, the first track is always data and any subsequent tracks are audio - at least for PlayStation 1 games. Track Your Package. It's still a pretty. Video of the Day. The cool thing is, you can easily convert the file you just opened to. This is especially useful when your enterprise's logging is centralized. Default, IsoBuster will prompt you each time after you made an optical disc image. BIN file is typically used to store information of following types: Binary disk or track data images. Open the cue sheet file with Notepad and rewrite the contents into this:. cue files contain only the following, then you are free to delete them; if they contain more than a single track record, or the index is not 00:00:00, then you should keep them. This tutorial will guide you how to convert a BIN/CUE file to ISO image file by using WinISO. Some popular games were added. Cue sheets are hard to find these days. A similar window may pop-up when you drag and drop the ECM file into the unecm. check in My Computer to see what drive daemon tools has mounted the image too. Playstation. This may necessitate updating any custom per-game psx. hello to you here you use a pc to download you should click on the more option button and select download browser. Use 7zip, WinZip or WinRAR to uncompress the archive. PSX ISOs (5134) NDS ROMs (6294) MAME ROMs (34305) GCN ISOs (1342) SNES ROMs (3484) GBA ROMs (2647) NES ROMs (2774) N64 ROMs (787) View All Sections; Consoles. 40MB RE2(Disc2)(Track1). Bin file is a binary image of a CD or DVD just as an ISO file. Handy little application that lets you play most, if not all, PSX sounds. The log says this: cuebin: No. If I am left with an. This means you will have at least two. These are usually games that use CDDA audio where each audio track is stored as a separate. Become a legendary Viking warrior raised on tales of battle and glory. Where it SAYS "CD2. For PC, download Foobar2000 (www. exe in the ecm100 folder. PS1: Added setting "psx. Next to the "Destination" disc box, ensure your CD. Description: Tekken 3 is a Fighting video game published by Namco released on April 24, 1998 for the Sony PlayStation. If you have one of the portable MP3 players, it is also easy to carry MP3s with you and listen to them through headphones. ) but they won't run. bin files (track 1, track 2 etc. bin to the name of the BIN file you are trying to burn. i encountered the same problem on the PC and on my phone Sony Erricson xperia play. Mobile optimized. CUE file contains tracks information, while the corresponding BIN file contains real track data. From my experience, the first track is always data and any subsequent tracks are audio - at least for PlayStation 1 games. For example the file above should now look like this:FILE "D:\MOVIES\CD2. bin files (with names track 1-20ish, almost like a. Clean simple layout combined with both 2D and 3D graphics. It works with joystick and track. We're sure that you know not many sites offer PSX ISO's for download. Most commonly, you'll find PlayStation games distributed as a zip-file and inside you'll find one or more bin files. pSX is an abandoned emulator that hasn't been updated since 2007. Here's where the BIN to ISO conversion comes in handy. com's game information and ROM (ISO) download page for International Track & Field (Sony Playstation). Some time, when you download files from different internet resources or torrents those are available in Bin format. 07 ISO (PSX) Interactive CD Sampler Demo Pack Vol. You can double-click on the searched event to view "Event Properties". In Windows Powershell 2. Additionally, only individual tracks can be downloaded and playlists as a whole are not available. It's a PlayStation 1 emulator that works to its peak capacity right out of the box. We're sure that you know not many sites offer PSX ISO's for download. Red Dead Redemption 2 is another game that doesn’t let you see how time-played directly on the game, but you. us continues to gain popularity among online users throughout the world. bin" BINARY TRACK 01 MODE1/2352 INDEX 01 00:00:00 Replace GAME NAME [1] US. 9 [1] - More accurate and compatible than OpenGL 1. Welcome to our PSX ISO Section. You can play games via the CD-ROM or via ISO. It's the authentic CTR experience plus a whole lot more, now fully-remastered and revved up to the max:. You can get the Windows binaries here, for the full sources check out the sourceforge page. As the app only monitors data on that particular Mac, you'll have to install it on all of the Macs in your house that you. Over the years, development changed hands several times with PCSX-Reloaded (PCSXR) now being the main version. BIN" BINARY. The official PlayStation™Store - Buy the latest PlayStation® games for your PS4™, PS3™, and PS Vita. PSX ISOs (5134) NDS ROMs (6294) MAME ROMs (34305) GCN ISOs (1342) SNES ROMs (3484) GBA ROMs (2647) NES ROMs (2774) N64 ROMs (787) View All Sections; Consoles. It works for almost every PS1 game I burn. Click here for step-by-step instructions. How to easily play multitrack psx files on the ePSXe - Duration: 4:47. This is the PCSX2 1. It works with joystick and track. Actually, BIN image file is not a collection of files or folders but is an exact duplicate of the raw data of the original disc, sector by sector. (Normal) 300 KB/sec. How to easily play multitrack psx files on the ePSXe - Duration: 4:47. The official PlayStation™Store - Buy the latest PlayStation® games for your PS4™, PS3™, and PS Vita. Crash is back in the driver's seat! Get ready to go fur-throttle with Crash™ Team Racing Nitro-Fueled. Many of the albums feature more than one track (for example, one track on one album, combined with all the hidden tracks, has a length of 56 minutes 40 seconds). CUE can be made with just Notepad. Single binary track — pregap start time with INDEX 00. People have the OST's on YouTube and I want to listen to them without going online. Nevermind I fixed it, heres how if anybody has this problem, just download IMGBurn and take the Ps1 CD and put it in your disk drive, then burn it as a BIN file, then rip the music tracks from the CD and go to "create CUE file" and add all of the tracks you ripped in order, then hit OK and itll create a CUE file with those tracks. Become a legendary Viking warrior raised on tales of battle and glory. Clean simple layout combined with both 2D and 3D graphics. To run a game from a disk image in a supported format (. The soundtrack was nice, though. Tekken 3 (USA) (Track 1). The section now contains all roms from release 0001 to 6300. I'll use the ROM for a rip. MagicISO allows the users to open/edit/extract bin files. It also contains a lot of additional information for those that seek a less. Latest The Latest Cheats. This format conforms to the normal MIDI specification, but includes data that is not often recorded or played back by other MIDI instruments, such as Note-Off velocity (from 0-127). cstr (compact. SITUATION: If you ever find yourself with an issue that after you ripped your CD Game (either a PS1 or PS2 CD game), you got a bunch of multiple BIN files instead of one. PS1 - Windows PowerShell shell script. ps1: View the current content of the file: Git add Get-SecTLS. Hi guys, following my guide on Unity for all of you interested in a File Manager for PS4 HEN 4. It all started with a broken contract with Nintendo at the end of the decade of 1980. Mednafen is a multi-system emulator that supports Atari Lynx, Neo Geo Pocket Color, WonderSwan, Game Boy Color, Game Boy Advance, NES, SNES, Virtual Boy, PC Engine/TurboGrafx-16 CD, PC-FX, Game Gear, Genesis/Mega Drive, Sega CD/Mega CD, Sega Master System, PlayStation 1, and Saturn. Nevermind I fixed it, heres how if anybody has this problem, just download IMGBurn and take the Ps1 CD and put it in your disk drive, then burn it as a BIN file, then rip the music tracks from the CD and go to "create CUE file" and add all of the tracks you ripped in order, then hit OK and itll create a CUE file with those tracks. Grand Theft Auto Advance GBA; Grand Theft Auto 2 [SLUS-00789] PSX Grand Theft Auto 2 GBC; Grand Theft Auto - Vice City Stories PSP; Grand Theft Auto NTSC-U SLUS-00106 PSX; F-1 World Grand Prix N64; Grand Theft Auto GBC; Grand Theft Auto - Mission Pack 1 - London 1969 [SLUS-00846] PSX From TV Animation One Piece - Grand Battle! 2 PSX; Grand Theft Auto 2 DC. ECM), click on File -> Run ISO in the main program window and select the image. To extract BIN / CUE file with AnyBurn, please follow the steps, Run AnyBurn, and click "Browse / Extract image file". mov (normal movie format), and. Grand Theft Auto ROMs. I tried VLC media player but the files were unreadable. If you declare *. The soundtrack was nice, though. We're sure that you know not many sites offer PSX ISO's for download. First, install IsoBuster and make sure to associate it with. PlayStation™Store gets you closer to the games you love. Personally I would download a properly dumped set like redump's (redump. CueMaster can retrieve CD track info from the free online album database FreeDB, or recover cuepoints from the MP3 file itself. Single-track game. This format conforms to the normal MIDI specification, but includes data that is not often recorded or played back by other MIDI instruments, such as Note-Off velocity (from 0-127). The CUE file should be named exactly the same as the BIN file, except with the. Single binary track with WAVE audio track file FILE "Castlevania - Symphony of the Night (USA) (Track 1). Bin file is a binary image of a CD or DVD just as an ISO file. " in the game's title) and I don't know how to get them to show up as one game when I scan them with Ice. cue file with IsoBuster, IsoBuster will know the track layout of the image but will get the actual data from another file (*. BleemSync, presumably named after an early commercial PS1 emulator for the PC called "Bleem!", is a piece of software created to make it much easier to add custom games to your PlayStation Classic. roms with multiple. As the app only monitors data on that particular Mac, you'll have to install it on all of the Macs in your house that you. bin files (with names track 1-20ish, almost like a. For PC, download Foobar2000 (www. It has been designed to closely resemble the design of the original console in a much smaller form factor, and is preloaded with 20 games from a wide variety of genres. I read here that as long as you have the. So if you open a *. com's PSX BIOS download page (scph1001. All file types, file format descriptions, and software programs listed on this page have been individually researched and verified by the FileInfo team. Once Player 1 has won some number of consecutive battles, choose "Change Setup" from the. Various compilation releases, released in the UK newspaper The Independent, feature hidden tracks after the final track. Showing letter: I. Single-track game. iso" BINARY TRACK 01 MODE2/2352 INDEX 01 00:00:00 FILE "Castlevania - Symphony of the Night (USA) (Track 2). This method won’t necessarily tell you all your time played across various saves, though, so you will have to do a little bit of math to find out your overall hours. cue file, open it up with Notepad, and paste the following in it: FILE "JET MOTO 2[1] US. With that selected, go to File > CD > Extract CD (image) and select "RAW (*. Nov 2nd 2013, 10:02. hash contains the SHA-1 hash identification of bin, iso and mdf files. BIN" being the name of the image file (IWDII. The only exception I can think of is images that have cd audio, the image program will make them different. bin files (with names track 1-20ish, almost like a. Now, grab your PS4 MAC address from your router and contact Sony customer support. xscalefs settings, and recalibrating the lightgun in-game, with PAL games. bin 669MB RE2(Disc1)(Track2). To make a cue file for an audio recording, you can simply open a text editor like notepad and type in the details. Make BIN File from CD / DVD. Here's my problem: I have iso files which come with multiple. CueMaster is the best freeware cue sheet creator. i encountered the same problem on the PC and on my phone Sony Erricson xperia play. Grand Theft Auto Advance GBA; Grand Theft Auto 2 [SLUS-00789] PSX Grand Theft Auto 2 GBC; Grand Theft Auto - Vice City Stories PSP; Grand Theft Auto NTSC-U SLUS-00106 PSX; F-1 World Grand Prix N64; Grand Theft Auto GBC; Grand Theft Auto - Mission Pack 1 - London 1969 [SLUS-00846] PSX From TV Animation One Piece - Grand Battle! 2 PSX; Grand Theft Auto 2 DC. Grand Theft Auto 5. The game I've been trying do do it with is Street Fighter Alpha. DC ISOs (1076) GCN ISOs (1342) Genesis ROMs (1659) N64 ROMs (787) NES ROMs (2774) PCECD ISOs (509) PS2 ISOs (4078) PSX ISOs (5134) Saturn ISOs (1296) SNES ROMs (3484) View All Sections. Our goal is to help you understand what a file with a *. bin files So I'm trying to get some psx roms to run that have multiple. KN4THX last edited by. cue file, open it up with Notepad, and paste the following in it: FILE "JET MOTO 2[1] US. Guide isobuster rebuilt bin Multitrack PSX. Description: Tekken 3 is a Fighting video game published by Namco released on April 24, 1998 for the Sony PlayStation. I 22:08:20 Source File Sectors: 199,325 (MODE2/FORM1/2352) I 22:08:20 Source File Size: 468,812,400 bytes. PsxMC can read. cue of your copy. " in the game's title) and I don't know how to get them to show up as one game when I scan them with Ice. Applies to: Exchange Server 2013, Exchange Server 2016, and Exchange Server 2019. A good example of this is the PAL version of Tomb Raider which has; " Tomb Raider (Europe) (Track 01). BRELS MIDI Editor, as the name suggests, is a free portable MIDI editor for Windows. Compressed PlayStation 1 games have the "ECM" extension. These are usually games that use CDDA audio where each audio track is stored as a separate. bin for the game's executable and one or more. Click on the "Burn CD and DVD Images" Icon. bin" BINARY TRACK 01 MODE1/2352 INDEX 01 00:00:00. The cool thing is, you can easily convert the file you just opened to. Most PS1 games are single-track, so this will usually work. Police used the IP addresses to track down where the game system was being used, one of them being Wingate's mother's. bin with whatever your game's file name is, but keep the quotation marks. Most commonly, you'll find PlayStation games distributed as a zip-file and inside you'll find one or more bin files. This method won’t necessarily tell you all your time played across various saves, though, so you will have to do a little bit of math to find out your overall hours. Keeping track of functions and making sure they're all specified in the FunctionsToExport section of the module manifest can be a annoying to maintain but it's a necessary evil if you want module auto-loading to work properly when placing the functions from your modules in separate PS1 files. Explore the wide collection of PS2 ROMs available at RomUniverse. PSSC - Windows PowerShell Session Configuration file. You can also spawn a CMD process and run fc within it. Here's my problem: I have iso files which come with multiple. 3 version instead of the newer version. Depending on your instrument model, you may be able to transfer using a floppy disk, SmartMedia card, USB storage device, etc. If you declare *. Save the file to the same folder as the BIN file. cue file in Daemon Tools or equivalent and then run the. ps1 with a working-tree-encoding enabled Git client, then foo. Most PS1 games are single-track, so this will usually work. Download Tekken 3 ISO ROM for PSX to play on your pc, mac, android or iOS mobile device. Grand Theft Auto ROMs. I use a Gameshark CDX for swapping purposes. "CD-R/RW Write Speed": Choose speed of burning. MAME updated to 0. wav cd with multiple songs) and the necessary. That's all I did. 40MB RE2(Disc2)(Track1). cue file found! Will attempt to guess format assuming single track. Set the output file format to bin / cue. This is an update of the plug-in for the AirTrack iPhone, iPad and iPod Touch app. You can also spawn a CMD process and run fc within it. Download the Mickey's Wild Adventure ROM for Playstation /PSX. It allows you to set a custom rendering resolution of up to 3x horizontal internal resolution and up to 4x vertical internal resolution for within the fullscreen box, aka window resolution and has support for shaders and Bilinear texture filtering. cue file with the. How to easily play multitrack psx files on the ePSXe - Duration: 4:47. It can be executed in text-based shell or saved. For example : Jersey Devil (track 1. org is a dumping group btw). In order to install it run the executable that will deploy a gauge in the proper folder and automatically activate it. It's still a pretty. So all of my PS1 games have. This is my personal project not related to BleemSync developers on ModMyClassic group on discord. An ISO file can only contain one data track, however bin / cue file can contain multiple tracks, and can contain data, audio, or video tracks. bin files (Track 1, Track 2 and so on) and a. Road & Track Presents: The Need for Speed is a racing video game developed by Pioneer Productions, a team within EA Canada, and published by Electronic Arts. I was wondering if all these files are needed to run each PS1 game in ePSXe (CLICK IMAGE BELOW). This tutorial is to help you with pSX for Windows. cue file found! Will attempt to guess format assuming single track. BIN file is typically used to store information of following types: Binary disk or track data images. Name the wav files as Track 02. • Receive notifications, game alerts, and invitations. The X-Files [SCES-01569, SCES-11569, SCES-21569 & SCES-31569] - We couldn't find some of the information and covers for this game. org is a dumping group btw). Start the program, click the 'Create image file from files/folders' button. It is then when I load it from the original cue file will all the its bin files. Mobile optimized. Note: If you click "Apply" button, the ISO file is set to "Open With" this media player. The game I've been trying do do it with is Street Fighter Alpha. Interactive CD Sampler Demo Pack Vol. It puts all the files into a single bin which will then convert. 'D:\' - but without the quotes) Pick a file name for the 'Destination' image file. It allows you to set a custom rendering resolution of up to 3x horizontal internal resolution and up to 4x vertical internal resolution for within the fullscreen box, aka window resolution and has support for shaders and Bilinear texture filtering. Creating a cue sheet for a CD has never been so easy. bin files they should run. PSound SoundReaver2. 5/8/2020; 31 minutes to read +6; In this article. bin files So I'm trying to get some psx roms to run that have multiple. He writes troubleshooting content and is the General Manager of Lifewire. How to play a game with multiple. If I understand correctly I am supposed to mount the. 2 - Use IMGBurn to create a single BIN/CUE file from the mounted disc. This version supports 64 bits. Next to the "Destination" disc box, ensure your CD. Over here, you can download from our vast collection of PSX ISO's. bin" BINARY TRACK 01 MODE1/2352 INDEX 01 00:00:00 Replace GAME NAME [1] US. Re: PSX ROM, no in-game music - help! It's a iso problem. A typical Playstation(One or 2). Get-content Get-SecTLS. PS1XML - Windows PowerShell format and type definitions. The collection contains 63 Playstation One games in PBP format, and the size of it is a little over 3GB. General Manager, VP, Lifewire. Still, these files are not hard to find and, ideally, you want to find a complete set bundled together. There are only a couple of things you need to do in order to completely wipe your PlayStation 4. PlayStation 1 was released on December 3, 1994 in Japan, 3rd September, 1995 in the U. In order to help us track down any alternate accounts that might be causing you trouble, we'd like to ask for a couple of files from your PC first. If I understand correctly I am supposed to mount the. These files do not come with the emulator nor can we discuss how to obtain these files. Cue sheets can describe many types of audio and data CDs. com's PSX ROMs section. Cue sheets are hard to find these days. You can then drag the file(s) onto a storage device. BIN and so. cue files totally pointless for PSX game images. Bin file is a binary image of a CD or DVD just as an ISO file. I would check if the images are correct before burning it to a disk. iso)" and a window will pop up asking where to save it. CUE file is a plain text file which contains information about tracks in a compact disc. Here's where the BIN to ISO conversion comes in handy. BIN / CUE file is an image file for compact disc, which can exactly represent a compact disc. PSX ISOs (5134) NDS ROMs (6294) MAME ROMs (34305) GCN ISOs (1342) SNES ROMs (3484) GBA ROMs (2647) NES ROMs (2774) N64 ROMs (787) View All Sections; Consoles. Interactive CD Sampler Demo Pack Vol. Data Transfer Rate (DMA TO RAM) 150 KB/sec. cue file itself in ePSXe, but if I try to do so I only get a black screen. iso on the first line in the cue-file. It may contain the song name, performer, and length of each track on the disc. • Apple Macintosh • Bandai Playdia Quick Interactive System • Bandai / Apple Pippin • Commodore Amiga CD • Commodore Amiga CD32 • Commodore Amiga CDTV • Fujitsu FM Towns series • IBM PC compatible • Mattel HyperScan • Microsoft Xbox • NEC PC-88 series • NEC PC-98 series • NEC PC-FX & PC-FXGA • NEC PC Engine CD. 1k files from emuparadise. wav cd with multiple songs) and the necessary. How to easily play multitrack psx files on the ePSXe - Duration: 4:47. Click here for step-by-step instructions. Please do not ask us for the files directly as they are not publicly available anymore and are intended to be used solely by owners of genuine PSIO Cartridges. Most commonly, you'll find PlayStation games distributed as a zip-file and inside you'll find one or more bin files. So if you open a *. Police used the IP addresses to track down where the game system was being used, one of them being Wingate's mother's. Become a legendary Viking warrior raised on tales of battle and glory. img images are exactly the same data wise, byte for byte crc and all, just a different extension name and the img format also includes extra sub-channel sub files. Data track and audio track binaries, properly dumped using the guide; Cuesheets and. ISO is the most popular file type for disc image files. Launcher Logs To start with, we will need the launcher logs for the Uplay PC client. cue file with IsoBuster, IsoBuster will know the track layout of the image but will get the actual data from another file (*. If I understand correctly I am supposed to mount the. Here's my problem: I have iso files which come with multiple. bin 671MB RE2(Disc2)(Track2). Choisissez votre affichage : Nom : Taille 007 - Die Welt ist Nicht Genug (DE) 442. hello to you here you use a pc to download you should click on the more option button and select download browser. I use a separate set of single bin/cues specifically for those emulators that do not play well with the multi's. DC ISOs (1076) GCN ISOs (1342) Genesis ROMs (1659) N64 ROMs (787) NES ROMs (2774) PCECD ISOs (509) PS2 ISOs (4078) PSX ISOs (5134) Saturn ISOs (1296) SNES ROMs (3484) View All Sections. It may contain the song name, performer, and length of each track on the disc. PS1XML - Windows PowerShell format and type definitions. bin files) « Reply #2 on: August 26, 2010, 11:42:15 pm » The data is fine, Ive managed to get both the games working. PSX ISOs (5134) NDS ROMs (6294) MAME ROMs (34305) GCN ISOs (1342) SNES ROMs (3484) GBA ROMs (2647) NES ROMs (2774) N64 ROMs (787) View All Sections; Consoles. bin files So I'm trying to get some psx roms to run that have multiple. Start the program, click the 'Create image file from files/folders' button. Data Transfer Rate (DMA TO RAM) 150 KB/sec. When using a USB adaptor to play music files, you may need to use a USB adaptor (not included) that supports copyright-protection features (to play copyright-protected files). 17 Trophies • 1,230 Points. You identify the location of a track break, write it into a text file and save the file for use in burning CD or splitting the track with an application like CUE Splitter. PlayStation 1 was released on December 3, 1994 in Japan, 3rd September, 1995 in the U. This file's name is also contained in the *. Stay smooth and off the walls/grass to pass the. MAME updated to 0. STAYING ON TRACK We at KAPCO instill a continued strength and fervor amongst our people as we maintain course, stay on track, and accelerate towards a bright future for all. Sebelum menginstall game pastikan kalian mempunyai software 7zip untuk membuka compress yang telah admin lakukan pada semua game di website spacexzo ini. How to play a game with multiple. Guide isobuster rebuilt bin Multitrack PSX. A cue-sheet file is in fact a text file with a. Most, if not all, PSX games discs only have a single data track, which makes. CUE extension. CueMaster is the best freeware cue sheet creator. Make sure the zipped file is above 150 MB,everything. Click on the "Burn CD and DVD Images" Icon. Check our collection of thousands of already converted PSX2PSP eboots for your PSP and official PSN eboots. Start the program, click the 'Create image file from files/folders' button. Description: Tekken 3 is a Fighting video game published by Namco released on April 24, 1998 for the Sony PlayStation. In fact, if you convert a a multi-track cue/bin file in a single cue/bin files, it works perfectly in the same way. About Mednafen. This is an update of the plug-in for the AirTrack iPhone, iPad and iPod Touch app. Click on: File —-> Open Image File; and select the file. A client without working-tree-encoding support will checkout foo. I read here that as long as you have the. The only time I seem to have problems is when I burn a game w/ multiple audio tracks and I get no sound. For PC, download Foobar2000 (www. How To Transfer Via Disk. It works with joystick and track. Stay smooth and off the walls/grass to pass the. This is a collection of cue and sbi files found around the web for Playstation One (PSX) roms. To make a cue file for an audio recording, you can simply open a text editor like notepad and type in the details. FILE "Castlevania - Symphony of the Night (USA). So I'm trying to get some psx roms to run that have multiple. img images are exactly the same data wise, byte for byte crc and all, just a different extension name and the img format also includes extra sub-channel sub files. Next to the "Destination" disc box, ensure your CD. Purchase the game from Humble Bundle. 1 - Place the PSX disc into your CD/DVD drive or mount the image on your PC so it becomes a virtual drive. A typical Playstation(One or 2). From my experience, the first track is always data and any subsequent tracks are audio - at least for PlayStation 1 games. Note: If you click "Apply" button, the ISO file is set to "Open With" this media player. Or you could use the DOS fc command like so (This shows the output of both files so you will have to scan for the differences):. Choose the output bin file name. Cue sheets also specify track lengths, and CD-Text including track and disc titles and performers. org; Over 1. A CUE file is a text file that defines the way tracks are organized on compact discs and super-audio CDs (SACDs). Then copy-paste the cue file text into a Notepad file, save it using the exact same file name as the game's main image file, and save it in the same folder. ECM), click on File -> Run ISO in the main program window and select the image. To run a game from a disk image in a supported format (. Menemukan file ganda atau berkelipatan setelah di ekstrak pada file/rom game PS1 , ini hal yang perlu dilakukan agar menjadi satu file bin dan dapat memudah kan untuk disimpan atau di mainkan di PS3, Android, PSP ataupun PC. Description: Tekken 3 is a Fighting video game published by Namco released on April 24, 1998 for the Sony PlayStation. Mobile optimized. drive on Steam. These are typically released as packs of three, or as single song. Save the file to the same folder as the BIN file. 0 compressed package for Windows. First, install IsoBuster and make sure to associate it with. Many apps, including Windows, won't recognize a CUE / BIN image to mount it. With PlayStation App, you can: • See which of your friends are online and what they're playing. DC ISOs (1076) GCN ISOs (1342) Genesis ROMs (1659) N64 ROMs (787) NES ROMs (2774) PCECD ISOs (509) PS2 ISOs (4078) PSX ISOs (5134) Saturn ISOs (1296) SNES ROMs (3484) View All Sections. xa files, and can also view. Take that car to the Tuned-Turbo Challenge and enter the Test-Track race. To run a disk image in an unsupported format, you will need to mount it with a separate program and configure ePSXe to use the virtual drive which the image is mounted to. This is the PCSX2 1. MagicISO allows the users to open/edit/extract bin files. These packs include songs from the first Guitar Hero for the PlayStation 2. The same happens if I try to run "Run CD ROM". Most PS1 games are single track, but there are a few that aren't. Download the torrent files with uTorrent or Azureus. IIRC, CDMage doesn't actually recognize whether a given track is raw (2352 bytes/sector) or cooked (2048 for Mode1, 2336 for Mode2). All file types, file format descriptions, and software programs listed on this page have been individually researched and verified by the FileInfo team. FILE "filename. You can get the Windows binaries here, for the full sources check out the sourceforge page. DC ISOs (1076) GCN ISOs (1342) Genesis ROMs (1659) N64 ROMs (787) NES ROMs (2774) PCECD ISOs (509) PS2 ISOs (4078) PSX ISOs (5134) Saturn ISOs (1296) SNES ROMs (3484) View All Sections. drive on Steam. The corresponding bin file stores the actual data for all tracks in the disc. CUE file looks like this: FILE "image-name. Interplay Sports. It has been designed to closely resemble the design of the original console in a much smaller form factor, and is preloaded with 20 games from a wide variety of genres. Reverse Engineering WipEout (PSX) In 1995 one of my all time favorite video games was released: the original WipEout for PlayStation. bin files – one. com's PSX ROMs section. PCSX has a high compatibility rate and is currently available for a number of different operating systems including Microsoft. 0 full installer package for Windows. I want to extract the soundtrack from my PS1 discs, but that requires XA or STR or CDDA files. 1) ROM for Nintendo 64(N64) and Play Mario Kart 64 (V1. With that selected, go to File > CD > Extract CD (image) and select "RAW (*. The collection contains 63 Playstation One games in PBP format, and the size of it is a little over 3GB. People have the OST's on YouTube and I want to listen to them without going online. log file(s) created by EAC (only for games with audio tracks). [ Reply ] [ Quote ] Re: [PSX] Single bin and audio tracks [message #3752 is a reply to message #3749 ]. cue file itself in ePSXe, but if I try to do so I only get a black screen. Egor Hans • 2 years ago. Sony has given users the opportunity this time round to play a lot of file formats, including the increasingly popular MKV container. I can only get in in a format that is multiple. iso on the first line in the cue-file. Find troubleshooting for common questions and issues on the PlayStation® support site. Interplay Sports. Again, make sure that "binname" in the. hello to you here you use a pc to download you should click on the more option button and select download browser. Install the module by running the " Import-Module TaskScheduler " command and use the following script to create a task that will execute the PowerShell script named GroupMembershipChanges. wav cd with multiple songs) and the necessary. It's still a pretty. cue file in Daemon Tools or equivalent and then run the. ps1: View the current content of the file: Git add Get-SecTLS. Add 2 seconds of nothing into all of the wav files except the first one. Data track + separate file for each audio track (common with Redump). Win the 4WD Challenge at Laguna Seca to receive a 618 hp custom car. As the app only monitors data on that particular Mac, you'll have to install it on all of the Macs in your house that you. Applies to: Exchange Server 2013, Exchange Server 2016, and Exchange Server 2019. Click the big 'Build' button. You can get the Windows binaries here, for the full sources check out the sourceforge page. PS2 plugin. A cue-sheet file is in fact a text file with a. The cool thing is, you can easily convert the file you just opened to. This tutorial will guide you how to convert a BIN/CUE file to ISO image file by using WinISO. Interplay Sports. The only time I seem to have problems is when I burn a game w/ multiple audio tracks and I get no sound. - Start your engines with the original game modes, characters, tracks, power-ups, weap. Use 7zip, WinZip or WinRAR to uncompress the archive. This tutorial is to help you with pSX for Windows. ps1 as files as UTF-16 and you add foo. cue file with the. bin files (track 1, track 2 etc. Getting the last-logon-date/time of O365 user is a vital task to track the user's last logon activity, find Inactive users and remove their licenses. DC ISOs (1076) GCN ISOs (1342) Genesis ROMs (1659) N64 ROMs (787) NES ROMs (2774) PCECD ISOs (509) PS2 ISOs (4078) PSX ISOs (5134) Saturn ISOs (1296) SNES ROMs (3484) View All Sections. Filename: Mickeys Wild Adventure (Europe) (EDC). This is especially useful when your enterprise's logging is centralized. As an alternative download PSX torrents eboot files that are already converted by other users. 85 MB 07-05-2020 Multilanguage GNU GPL 2,992 Download: PCSX2 1. Notice the difference of the track mode - PC-ROMs being Mode 1, Playstations CDs Mode 2 and (Super)Video CDs are also MODE2/2352. Start the program, click the 'Create image file from files/folders' button. Kenapa admin lebih memilih 7zip daripada winrar ? karena compress dari software 7zip lebih baik daripada winrar dan bisa untuk mengekstrak file dengan ekstensi winrar juga. [ Reply ] [ Quote ] Re: [PSX] Single bin and audio tracks [message #3752 is a reply to message #3749 ]. ps1: Add the file to be tracked by git and to the stage area using the current content: Git status: Check the status, it will inform that we have a new file that wasn't committed yet: Git commit -m "string". Still, these files are not hard to find and, ideally, you want to find a complete set bundled together. BIN" BINARY TRACK 01 MODE1/2352 INDEX 01 00:00:00 "image-name. Egor Hans • 2 years ago. I was wondering if all these files are needed to run each PS1 game in ePSXe (CLICK IMAGE BELOW). bin) Jersey Devil (track 3. BIN" being the name of the image file (IWDII. • Receive notifications, game alerts, and invitations. 5/8/2020; 31 minutes to read +6; In this article. Interactive CD Sampler Demo Pack Vol. The contents are 4 folders: S0,S1,S2,S3; and a "44" file, a "CNF" file and a "WAD" file. cue file with the. Nov 2nd 2013, 10:02. I opened my Crash Bandicoot 1 PS1 disc on my PC. Mobile optimized. CONNECT TO PLAYERS AND GAMES Take your PlayStation experience with you wherever you go! Stay connected to your gaming friends and the games you love to play, see who's online, and discover the latest titles on PlayStation Store. The only exception I can think of is images that have cd audio, the image program will make them different. FF8 Show PSX Buttons [forums. Where it SAYS "CD2. MAME updated to 0. It all started with a broken contract with Nintendo at the end of the decade of 1980. bin files (with names track 1-20ish, almost like a. You identify the location of a track break, write it into a text file and save the file for use in burning CD or splitting the track with an application like CUE Splitter. iso)" and a window will pop up asking where to save it. Click the big 'Build' button. Original soundtrack of the first version of the game. Do you want FREE SVG files for Cricut! Of course you do! If you are a Cricut beginner like me, you know that it can take hours of searching online to find the perfect SVG file only to realize that is a Paid SVG File and not free. Sony has finally released a media player for the PlayStation 4, only a year and a half after the console launched. Inside that folder, browse to the folder with the title of the game in question, open up the directory and move the cue file over to the directory with all of your BIN files. Come Unire Files (TRACK). From my experience, the first track is always data and any subsequent tracks are audio - at least for PlayStation 1 games. How It Works. - added ability to choose what files the program generates (VCD, ART or BIN) - added ability to automatically rename files to the latest format required by OPL (GAMEID. Become a legendary Viking warrior raised on tales of battle and glory. cue file with IsoBuster, IsoBuster will know the track layout of the image but will get the actual data from another file (*. The only time I seem to have problems is when I burn a game w/ multiple audio tracks and I get no sound. If you plan on selling your PlayStation 4, here's how to reset it by deactivating your PSN account and deleting all of the files on the console to put it back into factory condition. Here's where the BIN to ISO conversion comes in handy. How To Crack Psn Accounts (with Tools)Founded in 2005, securehosts. wav cd with multiple songs) and the necessary. I want to follow my previous answer and show you how this can be accomplish using FileSystemWatcher. This format conforms to the normal MIDI specification, but includes data that is not often recorded or played back by other MIDI instruments, such as Note-Off velocity (from 0-127). cue files are files stored on plain text that tell the program running it how the tracks on a cd/dvd are organized. From my experience, the first track is always data and any subsequent tracks are audio - at least for PlayStation 1 games. MagicISO is also a BIN extractor. Finally, load up the ePSXe emulator and, using the "Run ISO" option, load the. bin" BINARY TRACK 01 MODE1/2352 INDEX 01 00:00:00 Replace GAME NAME [1] US. Most commonly, you'll find PlayStation games distributed as a zip-file and inside you'll find one or more bin files. IsoBuster can also create these files. Playstation. WMA format files that are copyright protected cannot be played. cue of your copy. CLIXML - Windows PowerShell serialized data. the thing is that the uploader deleted the music files so that the iso file is smaller. Tim Fisher has 30+ years' professional technology support experience. bin 669MB RE2(Disc1)(Track2). cue into it. Grand Theft Auto Advance GBA; Grand Theft Auto 2 [SLUS-00789] PSX Grand Theft Auto 2 GBC; Grand Theft Auto - Vice City Stories PSP; Grand Theft Auto NTSC-U SLUS-00106 PSX; F-1 World Grand Prix N64; Grand Theft Auto GBC; Grand Theft Auto - Mission Pack 1 - London 1969 [SLUS-00846] PSX From TV Animation One Piece - Grand Battle! 2 PSX; Grand Theft Auto 2 DC. 55 this is a PoC (Proof-of-Concept). i encountered the same problem on the PC and on my phone Sony Erricson xperia play. With the same name, but with the. It's still a pretty. drive on Steam. To decompress this file, download a. This may necessitate updating any custom per-game psx. Download the Mickey's Wild Adventure ROM for Playstation /PSX. View this page in. Add 2 seconds of nothing into all of the wav files except the first one. There is already an answer using file hashes. In fact, if you convert a a multi-track cue/bin file in a single cue/bin files, it works perfectly in the same way. International Track & Field 2 (Europe) International Track & Field 2000. Figure 7: Event Properties - Permission changes in Active Directory ; You can also execute the below command in "Active Directory Module for Windows PowerShell". The same happens if I try to run "Run CD ROM". To edit MIDI files without much hassle, it lets. cuebin: Seems to be MODE1/2048 play_xa: unhandled xa mode 000000ff. I was wondering if anything was lost in the conversion from multi > single and if it would affect the accuracy of the rip in any way. [ Reply ] [ Quote ] Re: [PSX] Single bin and audio tracks [message #3752 is a reply to message #3749 ]. Still, these files are not hard to find and, ideally, you want to find a complete set bundled together. Contributed By: KasketDarkfyre, PhazonDaxter, wdg8, Joe Blow, ATadeo, Daemonorops, Curlis, megabassxz, Anonymous, Mike277, Zero_X_24, and RaumeRVZ. Creating a cue sheet for a CD has never been so easy. You identify the location of a track break, write it into a text file and save the file for use in burning CD or splitting the track with an application like CUE Splitter. 'D:\' - but without the quotes) Pick a file name for the 'Destination' image file. FILENAME) using the OPLM database - added ability to output a merged BIN/CUE file for use in emulators that do not support multi-track cue files. I know they won't load in pSX or ePSXe but they do work in PCSX-R and XEBRA. Getting the last-logon-date/time of O365 user is a vital task to track the user's last logon activity, find Inactive users and remove their licenses. This is especially useful when your enterprise's logging is centralized. To run a game from a disk image in a supported format (. Guide isobuster rebuilt bin Multitrack PSX. With that selected, go to File > CD > Extract CD (image) and select "RAW (*. You can double-click on the searched event to view "Event Properties". Supports BIN, ISO and IMG files. Sponsored links. Welcome to our PSX ISO Section. Figure 7: Event Properties - Permission changes in Active Directory ; You can also execute the below command in "Active Directory Module for Windows PowerShell". To decompress this file, download a. I know they won't load in pSX or ePSXe but they do work in PCSX-R and XEBRA. This is the definitive guide to rebuild copies multitrack format redump. Next to the "Destination" disc box, ensure your CD. You may also want to change the first line, if you changed the extension of the extracted image file to. 0 compressed package for Windows. 5/8/2020; 31 minutes to read +6; In this article. In fact, if you convert a a multi-track cue/bin file in a single cue/bin files, it works perfectly in the same way. Luckily, you can do most of this with the free version too, it's just got an older looking interface, which isn't a big deal to me. Creating a cue sheet for a CD has never been so easy. ECM), click on File -> Run ISO in the main program window and select the image. An audio file format is a container format for storing audio data on a computer system. There are only a couple of things you need to do in order to completely wipe your PlayStation 4. BIN COMPLETO - Duration: 5:48. Re: PSX ROM, no in-game music - help! It's a iso problem. If PowerShell is available, the Send-MailMessage commandlet is a single one-line command that could easily be called from a batch file to handle email notifications. This is a fairly common issue that many players may encounter. com's PSX BIOS download page (scph1001. Depending on your instrument model, you may be able to transfer using a floppy disk, SmartMedia card, USB storage device, etc. cue file with the. Thus, if you download any ISO's, please show you support by voting for the site. For example, FF games' musics are played like MIDI; with PSound you will. DC ISOs (1076) GCN ISOs (1342) Genesis ROMs (1659) N64 ROMs (787) NES ROMs (2774) PCECD ISOs (509) PS2 ISOs (4078) PSX ISOs (5134) Saturn ISOs (1296) SNES ROMs (3484) View All Sections. I have some old PS1 games, (Crash, Spyro, and Final Fantasy) that I want to extract their songs from the game so I can listen to them regularly. Tekken 3 (USA) (Track 1). You can play games via the CD-ROM or via ISO. bin02, Image. If it's not an executable file; it starts the program associated with the file. If you don't see a download file button, it means the user who uploaded it did not intend for it to be downloadable. Crash is back in the driver's seat! Get ready to go fur-throttle with Crash™ Team Racing Nitro-Fueled. Note: If you click "Apply" button, the ISO file is set to "Open With" this media player. As the app only monitors data on that particular Mac, you'll have to install it on all of the Macs in your house that you. Supports BIN, ISO and IMG files. • Receive notifications, game alerts, and invitations. bin for the game’s executable and one or more.
b7ffv0trn613, 0p0m643ru8iexr, xplaimv7lebbw, aiu9nynm28b183, 2pziwup3ahht, 3pubfn0ex5f1e, 9jdcm6ejo90m, u97r2wrkd5, u2c46b5aevojj, aniemd0063u, ke64kvlvbvg6t, fyyamqvot39zn, 7dsz8g8xvupk6, xzu7pxrh5ci, 2rigdu3aob, wdlymxmkjxbznx6, zcntjnm89as88, q95y1pnpo5k, 57fuey3y14w86sl, 4mep41y8moq1d, z2t51m899oy7p, 5ywx6sg6ik0, 1bnc88d5qbnxo, xx8ewxkhnmd, 1889kztur70h, pj7y35kdz7p, onnmoezujc13b2